1. Nimm jetzt an unserem 2. ADVENT-Gewinnspiel teil - Alle Informationen findest Du hier!

Mp4 Audio auf dem Milestone mit Tags?

Dieses Thema im Forum "Motorola Milestone Forum" wurde erstellt von The_real_Otto, 04.01.2010.

  1. The_real_Otto, 04.01.2010 #1
    The_real_Otto

    The_real_Otto Threadstarter Neuer Benutzer

    Beiträge:
    5
    Erhaltene Danke:
    1
    Registriert seit:
    04.01.2010
    Phone:
    Motorola Milestone
    Hallo liebe User Gemeinde,

    ich hab mal eine Frage wie ich Mp4-Audiofiles so taggen kann, das ich die Tags dann auf dem Milestone angezeigt bekomme? Ich hab es schon mit Mp3tag versucht, die Player unter Windows zeigen die Tags dann an.
    Schiebe ich die Files dann auf das Milestone, tauchen sie zwar im Musik Player auf und können auch abgespielt werden aber nur der Interpret Tag wird ausgewertet. Als Album steht einfach "Music" und wenn ich dann weiter drücke, zeigt es nur den Filenamen an.
    Bin für alle Tips dankbar.

    Euer Otto
     
  2. LiveWire, 04.01.2010 #2
    LiveWire

    LiveWire Gast

    Was hast du denn da für MP4 Audio? Ich habe FAAC im M4A Container und bis auf die Tracknummern werden alle Felder ausgewertet. Vielleicht ist dein Album Tag falsch gesetzt?

    Ich geh schon mal in Deckung, gleicht kommt ein Mod und verschiebt den Beitrag weil er nicht ins Milestone Forum gehört...
     
  3. The_real_Otto, 05.01.2010 #3
    The_real_Otto

    The_real_Otto Threadstarter Neuer Benutzer

    Beiträge:
    5
    Erhaltene Danke:
    1
    Registriert seit:
    04.01.2010
    Phone:
    Motorola Milestone
    Hallo LiveWire,

    Die Dateien sind mit Nero AAC Encoder V1.5.1.0 erstellt. Ge-Tagt habe ich sie mit Mp3tag.

    Code:
    General
    Complete name                    : Jazzanova Radio Show_20100103_2357.mp4
    Format                           : MPEG-4
    Format profile                   : Base Media / Version 2
    Codec ID                         : mp42
    File size                        : 84.1 MiB
    Duration                         : 2h 5mn
    Overall bit rate                 : 93.5 Kbps
    Album                            : Jazzanova Radio Shows
    Track name                       : RS20100103
    Track name/Position              : 1
    Track name/Total                 : 0
    Performer                        : Jazzanova
    Encoded date                     : 2009
    Tagged date                      : UTC 2010-01-04 15:31:54
    Writing application              : Nero AAC codec / 1.5.1.0
    Cover                            : Yes
    Comment                          : Radio Show vom 03.01.2010
    
    Audio
    ID                               : 1
    Format                           : AAC
    Format/Info                      : Advanced Audio Codec
    Format version                   : Version 4
    Format profile                   : LC
    Format settings, SBR             : Yes
    Format settings, PS              : No
    Codec ID                         : 40
    Duration                         : 2h 5mn
    Bit rate mode                    : Variable
    Bit rate                         : 92.6 Kbps
    Maximum bit rate                 : 127 Kbps
    Channel(s)                       : 2 channels
    Channel positions                : L R
    Sampling rate                    : 48.0 KHz
    Stream size                      : 83.4 MiB (99%)
    Encoded date                     : UTC 2010-01-04 15:28:44
    Tagged date                      : UTC 2010-01-04 15:31:54
    
    Menu
    00:00:00.097                     : RS20100103
    
    Code:
    *************************************************************
    *                                                           *
    *  Nero MPEG-4 Audio Tagger                                 *
    *  Copyright 2009 Nero AG                                   *
    *  All Rights Reserved Worldwide                            *
    *                                                           *
    *  Package build date: Dec 17 2009                          *
    *  Package version:    1.5.1.0                              *
    *                                                           *
    *  See -help for a complete list of available parameters.   *
    *                                                           *
    *************************************************************
    
    Processing file: "Jazzanova Radio Show_20100103_2357.mp4"
      Metadata list:
        album = Jazzanova Radio Shows
        artist = Jazzanova
        comment = Radio Show vom 03.01.2010
        itunsmpb =  00000000 00000920 000002A0 000000000ACCA040 00000000 00000000 00000000 00000000 0000
    0000 00000000 00000000 00000000
        title = RS20100103
        tool = Nero AAC codec / 1.5.1.0
        track = 1
        year = 2010
      End of metadata.
    No changes made to the file.
    
    Leider kenne ich mich mit Mp4 nicht so toll aus. Auf dem Ipod wird alles richtig angezeigt.

    Danke

    Otto
     
  4. LiveWire, 05.01.2010 #4
    LiveWire

    LiveWire Gast

    Ich kanns mir schon denken. Hast du das nur mit einer Datei probiert? Heisst der Ordner in dem die Datei liegt zufällig "Music"? Ich habe festgestellt das einige Podcasts auch zu einem Album zusammengefasst werden das wie der Ordnername heißt. Andere Podcasts wiederrum (z.B. TWiT) werden korrekt aufgelistet.

    Probehalber kannst du ja mal folgende Felder rausnehmen:
    Code:
    Track name/Position              : 1
    Track name/Total                 : 0
    Oder ein Genre einfügen Podcast? Jazz?

    Das Verhalten tritt auch bei MP3 Dateien auf. Hier das Beispiel das funktioniert:
    Code:
    General
    Complete name                    : twit0229.mp3
    Format                           : MPEG Audio
    File size                        : 44.4 MiB
    Duration                         : 1h 36mn
    Overall bit rate                 : 64.0 Kbps
    Album                            : TWiT January 2010
    Track name                       : TWiT 229: Pooh Butter And Scented Candles
    Performer                        : Leo Laporte and the TWiTs
    Genre                            : Podcast
    Recorded date                    : 2009
    Writing library                  : iTunes v7.0
    Cover                            : Yes
    Cover type                       : Cover (front)
    Cover MIME                       : image/jpeg
    Comment                          : [url=http://twit.tv/229]The TWiT Netcast Network with Leo Laporte[/url]
    
    Audio
    Format                           : MPEG Audio
    Format version                   : Version 1
    Format profile                   : Layer 3
    Duration                         : 1h 36mn
    Bit rate mode                    : Constant
    Bit rate                         : 64.0 Kbps
    Channel(s)                       : 1 channel
    Sampling rate                    : 44.1 KHz
    Resolution                       : 16 bits
    Stream size                      : 44.2 MiB (100%)
    Und das funktioniert nicht:
    Code:
    Complete name                    : hr2_wissenswert_20091230_2.mp3
    Format                           : MPEG Audio
    File size                        : 6.89 MiB
    Duration                         : 15mn 1s
    Overall bit rate                 : 64.0 Kbps
    Album                            : hr2 Wissenswert
    Track name                       : Heinrich Hoffmann, Struwwelpeter ... : (4) Der Kinderpsychiater.
    Performer                        : Eva Maria Siefert
    Genre                            : Other
    Recorded date                    : 2009
    Writing library                  : LAME3.98 
    Cover                            : Yes
    Cover description                : hr2 Wissenswert
    Cover type                       : File icon
    Cover MIME                       : image/jpg
    Comment                          : Medizinhistoriker sagen: Hoffm
    
    Audio
    Format                           : MPEG Audio
    Format version                   : Version 1
    Format profile                   : Layer 3
    Duration                         : 15mn 1s
    Bit rate mode                    : Constant
    Bit rate                         : 64.0 Kbps
    Channel(s)                       : 1 channel
    Sampling rate                    : 44.1 KHz
    Resolution                       : 16 bits
    Stream size                      : 6.88 MiB (100%)
    Writing library                  : LAME3.98 
    Encoding settings                : -m m -V 4 -q 7 -lowpass 16.5 -b 64
    Vielleicht liegt es auch an iTunes (Tags mit iTunes schreiben lassen)?
     
    The_real_Otto bedankt sich.
  5. neonblack, 05.01.2010 #5
    neonblack

    neonblack Neuer Benutzer

    Beiträge:
    21
    Erhaltene Danke:
    0
    Registriert seit:
    17.12.2009
    Phone:
    Sony Ericsson Xperia Arc
    hm, ich hatte ein ähnliches Problem. Bisher war bei mir alles (weil vorher auf dem iphone) als m4a (allerdings mit Nero AAC via foobar2000 encoded) und auf dem Milestone wurde das Tag für Track-Nummern nicht angezeigt. Fand trotz diverser tagging-Tools bisher keine Lösung, also hab ich - weil ich mp3 nicht benutzen will - kurzerhand nochmal alles von CD Richtung ogg vorbis geripped und hier scheint's mit dem Taggen zu funktionieren - dafür wird Coverart nicht angezeigt, obwohl mit abgespeichert...naja, geht mir in erster Linie darum, dass Alben in der richtigen Reihenfolge und in akzeptabler Qualität abgespielt werden, was ich auf diesem Weg ja erreicht habe...trotzdem wäre mir m4a "mit" korrekten Tags "und" Coverart natürlich lieber, habe aber wie gesagt bis jetzt keinen Weg gefunden.
     
  6. LiveWire, 06.01.2010 #6
    LiveWire

    LiveWire Gast

    Jup, alles bekannte Bugs/Features. Empfehlenswert ist wirklich MP3 damit hat der 2.0 Player die geringsten Probleme. Ich würde zwar auch lieber AAC nehmen, aber so ist die Lage nunmal.

    Bei den M4As ist nur die Auflistung alphabetisch, wenn du das komplette Album in die Playlist packst sind die Titel nach Tracknummer sortiert. Bei OGGs kannst du versuchen das Cover im Ordner als AlbumArt.jpg speichern, das sollte funktionieren.
     
  7. The_real_Otto, 06.01.2010 #7
    The_real_Otto

    The_real_Otto Threadstarter Neuer Benutzer

    Beiträge:
    5
    Erhaltene Danke:
    1
    Registriert seit:
    04.01.2010
    Phone:
    Motorola Milestone
    Danke für deinen Tip mit dem Ordner, ja ich hatte die Datei einfach in den Music Ordner gestellt. Der Unterordner fungiert jetzt sozusagen als Ersatz für dein eigentlich vorhandenen Album Tag. Jetzt muss man die Dateien nur entsprechend umbenennen %Tracknummer%.%Titel%.mp4. Dann sieht es eigentlich ganz brauchbar aus und die Sortierung passt.

    Danke Otto
     
  8. The_real_Otto, 06.01.2010 #8
    The_real_Otto

    The_real_Otto Threadstarter Neuer Benutzer

    Beiträge:
    5
    Erhaltene Danke:
    1
    Registriert seit:
    04.01.2010
    Phone:
    Motorola Milestone
    So, habe jetzt mal 2 Alben zum Testen konvertiert. Sieht nicht so gut aus. Einerseits funktioniert es schon irgendwie. %AlbumTitel%/%tTracknummer%-%Trackname%.mp4. Zumindest wird es nicht durcheinander geschmissen wie wenn die Dateien *.m4a heissen. Schlecht ist es aber wenn im Titel ein "'" drinnen ist. Dann erkennt es die files plötzlich wieder richtig (Tracklänge wird angezeigt) und die Sortierung ist futsch, also solche Dateien stehen dann am Ende der Playlist auch wenn sie weiter oben hingehören.

    Gruss Otto
     

Diese Seite empfehlen