1. Nimm jetzt an unserem 2. ADVENT-Gewinnspiel teil - Alle Informationen findest Du hier!

SGS Video Player: manche Videos funktionieren, andere nicht?

Dieses Thema im Forum "Samsung Galaxy S (I9000) Forum" wurde erstellt von rumpumpel1, 19.12.2010.

  1. rumpumpel1, 19.12.2010 #1
    rumpumpel1

    rumpumpel1 Threadstarter Junior Mitglied

    Beiträge:
    27
    Erhaltene Danke:
    1
    Registriert seit:
    19.12.2010
    jeweils Ausgabe von ffmpeg und jeweils Matroska:

    folgender Film spielt einwandfrei:

    Stream #0.0(eng): Video: h264, yuv420p, 1280x720, PAR 1:1 DAR 16:9, 25 fps, 25 tbr, 1k tbn, 50 tbc
    Stream #0.1(eng): Audio: ac3, 48000 Hz, 5.1, s16, 640 kb/s
    Stream #0.2(ger): Subtitle: [0][0][0][0] / 0x0000

    folgender Filme bleibt schwarz:

    Stream #0.0: Video: h264, yuv420p, 512x288 [PAR 1:1 DAR 16:9], 25 fps, 25 tbr, 1k tbn, 50 tbc
    Stream #0.1(tur): Audio: ac3, 48000 Hz, 5.1, s16, 448 kb/s
    Stream #0.2(eng): Subtitle: [0][0][0][0] / 0x0000


    wie kann das sein ? Eigentlich ist der zweite eher unkritisch da kleinere
    Auflösung und kleinere Audio Bitrate.

    Gibt es denn irgendwo eine genaue Info was der Video Player kann und was nicht ?
     

Diese Seite empfehlen