Galaxy S5 (G900)Video läßt sich nicht abspielen, warum?

  • 5 Antworten
  • Neuester Beitrag
Diskutiere Galaxy S5 (G900)Video läßt sich nicht abspielen, warum? im Foto und Multimedia im Bereich Android Apps und Spiele.
M

mike77x

Fortgeschrittenes Mitglied
Hallo,

ich habe eine DVD in ein avi umgewandelt und aufs S5 kopiert, Audio läßt sich abspielen, Video nicht "Nicht unterstützter Video-Codec". Soll ich andere Einstellungen für das avi vornehmen oder warum läßt sich das Video nicht abspielen?

General
Complete name : C:\Users\yo\Desktop\film\film.avi
Format : AVI
Format/Info : Audio Video Interleave
File size : 1.50 GiB
Duration : 1h 40mn
Overall bit rate : 2 135 Kbps

Video
ID : 0
Format : MPEG-4 Visual
Format settings, BVOP : Yes
Format settings, QPel : No
Format settings, GMC : No warppoints
Format settings, Matrix : Default (H.263)
Muxing mode : Packed bitstream
Codec ID : DX50
Codec ID/Hint : DivX 5
Duration : 1h 40mn
Bit rate : 1 997 Kbps
Width : 640 pixels
Height : 360 pixels
Display aspect ratio : 16:9
Frame rate : 25.000 fps
Color space : YUV
Chroma subsampling : 4:2:0
Bit depth : 8 bits
Scan type : Progressive
Bits/(Pixel*Frame) : 0.347
Stream size : 1.41 GiB (94%)
Writing library : DivX 6.8.3-6.8.4 (UTC 2008-06-07)

Audio
ID : 1
Format : MPEG Audio
Format version : Version 1
Format profile : Layer 3
Codec ID : 55
Codec ID/Hint : MP3
Duration : 1h 40mn
Bit rate mode : Constant
Bit rate : 128 Kbps
Channel(s) : 2 channels
Sampling rate : 44.1 KHz
Video delay : 26ms
Stream size : 92.2 MiB (6%)
Alignment : Split accross interleaves
Interleave, duration : 40 ms (1.00 video frame)
Title : Audio Stream
Writing library : LAME3.92
 
derdoc78

derdoc78

Stammgast
Versuch es mal mit einem anderen Player!!! Vielleicht hilft des ja
 
GalaxyKnight

GalaxyKnight

App-Anbieter (kostenlos)
MX Player. Der spielt alles ab.
 
M

mike77x

Fortgeschrittenes Mitglied
mit dem vlc-player klappts. würde aber gern den alten player weiter benutzen. video kann nicht abgespielt werden, weils n divx-codec ist, habs jetzt mal mit dem xvid-codec umgewandelt und es klappt. Hab Single Pass + Quant 2 eingestellt, komme aber nur auf einen Video-Stream von1000 Kbps.

Weiß jemand wie ich beim xvid-codec einstellen kann, daß ich auf ca. 2000 Kbps komme?
 
PrinzPoldi007

PrinzPoldi007

Gesperrt
Wenn Du uns jetzt noch mitteilen würdest, mit welcher Software Du die Konvertierung durchgeführt hast, könnte man Dir vielleicht besser helfen ;)
 
M

mike77x

Fortgeschrittenes Mitglied
MagicDVDRiper 5.5.1. Aber die Software ist ja soweit ich weiß nicht so wichtig, sondern nur die Einstellungen im xvid-codec?!:smile: