Video Codec wird nicht unterstützt

  • 4 Antworten
  • Neuester Beitrag
Diskutiere Video Codec wird nicht unterstützt im Samsung Galerie im Bereich Samsung Apps und Dienste.
PitPossum

PitPossum

Fortgeschrittenes Mitglied
Hallo,

bin von einen Xiaomi Telefon auf das S8 mit Oreo umgezogen.
Jedoch kann ich keine meiner , auf den Xiaomi Handy, erstellten Videos mehr ansehen.
In der Galerie sind die Vorschaubilder grau mit einem Ausrufezeichen.
Wenn ich sie über die eigene Dateien starte, läuft nur der Ton und mir wird die Meldung Video Codec wird nicht unterstützt, angezeigt.
Mit dem MX Player funktionieren sie einwandfrei, ohne Vorschaubilder ist dies aber sehr müßig das richtige herauszufinden.
Kennt jemand das Problem und weiß eventuell sogar Abhilfe?

Mit freundlichen Grüßen
Pit
 
PitPossum

PitPossum

Fortgeschrittenes Mitglied
Hi,

Videos möchte ich nicht veröffentlichen.
Hier die ausgelesen Informationen .

*** General
Complete name : /storage/0921-1004/DCIM/Camera/VID_20180330_105655.mp4
Format : MPEG-4
Format profile : Base Media / Version 2
Codec ID : mp42 (isom/mp42)
File size : 23.6 MiB
Duration : 21 s 776 ms
Overall bit rate : 9 082 kb/s
Encoded date : UTC 2018-03-30 08:57:18
Tagged date : UTC 2018-03-30 08:57:18
com.android.version : 6.0
*** Video
ID : 1
Format : AVC
Format/Info : Advanced Video Codec
Format profile : High@L4.1
Format settings : CABAC / 1 Ref Frames
Format settings, CABAC : Yes
Format settings, ReFrames : 1 frame
Format settings, GOP : M=1, N=30
Codec ID : avc1
Codec ID/Info : Advanced Video Coding
Duration : 21 s 714 ms
Bit rate : 8 977 kb/s
Width : 1 280 pixels
Height : 720 pixels
Display aspect ratio : 16:9
Rotation : 90°
Frame rate mode : Variable
Frame rate : 29.843 FPS
Minimum frame rate : 29.723 FPS
Maximum frame rate : 29.880 FPS
Color space : YUV
Chroma subsampling : 4:2:0
Bit depth : 8 bits
Scan type : MBAFF
Bits/(Pixel*Frame) : 0.326
Stream size : 23.2 MiB (99%)
Title : VideoHandle
Language : English
Encoded date : UTC 2018-03-30 08:57:18
Tagged date : UTC 2018-03-30 08:57:18
mdhd_Duration : 21714
*** Audio
ID : 2
Format : AAC
Format/Info : Advanced Audio Codec
Format profile : LC
Codec ID : mp4a-40-2
Duration : 21 s 776 ms
Duration_FirstFrame : 37 ms
Bit rate mode : Constant
Bit rate : 128 kb/s
Nominal bit rate : 12.2 kb/s
Channel(s) : 2 channels
Channel positions : Front: L R
Sampling rate : 48.0 kHz
Frame rate : 46.875 FPS (1024 SPF)
Compression mode : Lossy
Stream size : 340 KiB (1%)
Title : SoundHandle
Language : English
Encoded date : UTC 2018-03-30 08:57:18
Tagged date : UTC 2018-03-30 08:57:18
Running time
00:00.224
 
PitPossum

PitPossum

Fortgeschrittenes Mitglied
Wenn ich die Metadaten eines funktionierenden und eines nicht funktionierenden Videos vergleiche , kann ich keinen Unterschied entdecken.
 
JustDroidIt

JustDroidIt

Inventar
Wie bringe ich die Samsung Galerie dazu .wmv Videos zu erkennen/anzuzeigen?

Die Suche spuckt zu wmv und codec nichts aus!? Sehr seltsam dass das beim Marktführer niemanden zu interessieren scheint... :confused2: