1. Möchtest Du unser Team im Android OS-Bereich unterstützen? Details dazu findest du hier!
  2. Nimm jetzt an unserem Uhans - 3. ADVENT - Gewinnspiel teil - Alle Informationen findest Du hier!

ihr gerät ist nicht autorisiert dieses kopiergeschützte divx video abzuspielen

Dieses Thema im Forum "Foto und Multimedia" wurde erstellt von samsara, 09.08.2011.

  1. samsara, 09.08.2011 #1
    samsara

    samsara Threadstarter Fortgeschrittenes Mitglied

    Beiträge:
    259
    Erhaltene Danke:
    50
    Registriert seit:
    01.12.2009
    Phone:
    Nexus 6
    Hallo,
    Ich habe hier 2 .avi dateien, welche mit einer Samsung Kamera aufgenommen wurden. Wenn ich diese auf dem galaxy s2 abspielen will (über die galerie) kommt diese Meldung "ihr gerät ist nicht autorisiert dieses kopiergeschützte divx video abzuspielen"

    Auf allen anderen Geräten läuft das Video (auch auf meinem HTC Magic liefen diese unter Android 2.1 und 2.2.

    Weiß jemand woran das liegt? Auf den dateien ist eigentlich kein Kopierschutz.
     
  2. belphegore, 09.08.2011 #2
    belphegore

    belphegore Fortgeschrittenes Mitglied

    Beiträge:
    348
    Erhaltene Danke:
    76
    Registriert seit:
    15.05.2011
    Kannst du mal bitte mit Mediainfo gucken womit das Video kodiert ist und es hier posten? Und mit welcher Kamera hast du es aufgenommen?

    MediaInfo
     
  3. samsara, 09.08.2011 #3
    samsara

    samsara Threadstarter Fortgeschrittenes Mitglied

    Beiträge:
    259
    Erhaltene Danke:
    50
    Registriert seit:
    01.12.2009
    Phone:
    Nexus 6
    Kamera ist eine Samsung ES60

    Media Info spuckt dies aus:

    Format : AVI
    Format/Info : Audio Video Interleave
    File size : 132 MiB
    Duration : 1mn 26s
    Overall bit rate : 12.8 Mbps

    Video
    ID : 0
    Format : JPEG
    Codec ID : MJPG
    Duration : 1mn 26s
    Bit rate : 12.4 Mbps
    Width : 640 pixels
    Height : 480 pixels
    Display aspect ratio : 4:3
    Frame rate : 30.000 fps
    Color space : YUV
    Chroma subsampling : 4:2:2
    Bit depth : 8 bits
    Scan type : Progressive
    Compression mode : Lossy
    Bits/(Pixel*Frame) : 1.350
    Stream size : 128 MiB (97%)

    Audio
    ID : 1
    Format : PCM
    Format settings, Endianness : Little
    Format settings, Sign : Signed
    Codec ID : 1
    Codec ID/Hint : Microsoft
    Duration : 1mn 26s
    Bit rate mode : Constant
    Bit rate : 352.8 Kbps
    Channel(s) : 1 channel
    Sampling rate : 22.05 KHz
    Bit depth : 16 bits
    Stream size : 3.64 MiB (3%)
    Interleave, duration : 33 ms (1.00 video frame)


    Habe es grade mal mit dem Rock Player probiert, da funktioniert es wenn ich "software" auswähle, bei Hardware decoding kommt aber dass das Format nicht unterstützt wird.
     
  4. belphegore, 09.08.2011 #4
    belphegore

    belphegore Fortgeschrittenes Mitglied

    Beiträge:
    348
    Erhaltene Danke:
    76
    Registriert seit:
    15.05.2011
    Ist wie erwartet einfach nur ein Codec-Problem. Motion-JPEG ist nicht das beste Format für Videos, da bleibt dir nur konvertieren oder einen anderen Player zu nutzen.
     

Diese Seite empfehlen

Besucher kamen mit folgenden Begriffen auf unsere Seite:

  1. Gerät unterstützt nicht die wiedergabe speziell kopiergeschützter videos

    ,
  2. gerät unterstützt nicht speziell kopiergeschützte videos

    ,
  3. was heist gerät unterstützt Wiedergabe geschützter Videos nicht?

    ,
  4. gerät unterstützt nichts die wiedergabe von kopiergeschützten videos,
  5. ger�t unterst�tzt nicht die wiedergabe speziell kopiergesch�tzter videos