1. Möchtest Du unser Team im Android OS-Bereich unterstützen? Details dazu findest du hier!
  2. Wir haben diesmal 2 Gewinnspiele zeitgleich für euch - Gewinne einmal ein UMI Plus E - Beim 2ten könnt ihr ein Nomu S30 gewinnen!
  1. samsara, 09.08.2011 #1
    samsara

    samsara Threadstarter Fortgeschrittenes Mitglied

    Hallo,
    Ich habe hier 2 .avi dateien, welche mit einer Samsung Kamera aufgenommen wurden. Wenn ich diese auf dem galaxy s2 abspielen will (über die galerie) kommt diese Meldung "ihr gerät ist nicht autorisiert dieses kopiergeschützte divx video abzuspielen"

    Auf allen anderen Geräten läuft das Video (auch auf meinem HTC Magic liefen diese unter Android 2.1 und 2.2.

    Weiß jemand woran das liegt? Auf den dateien ist eigentlich kein Kopierschutz.
     
  2. belphegore, 09.08.2011 #2
    belphegore

    belphegore Fortgeschrittenes Mitglied

    Kannst du mal bitte mit Mediainfo gucken womit das Video kodiert ist und es hier posten? Und mit welcher Kamera hast du es aufgenommen?

    MediaInfo
     
  3. samsara, 09.08.2011 #3
    samsara

    samsara Threadstarter Fortgeschrittenes Mitglied

    Kamera ist eine Samsung ES60

    Media Info spuckt dies aus:

    Format : AVI
    Format/Info : Audio Video Interleave
    File size : 132 MiB
    Duration : 1mn 26s
    Overall bit rate : 12.8 Mbps

    Video
    ID : 0
    Format : JPEG
    Codec ID : MJPG
    Duration : 1mn 26s
    Bit rate : 12.4 Mbps
    Width : 640 pixels
    Height : 480 pixels
    Display aspect ratio : 4:3
    Frame rate : 30.000 fps
    Color space : YUV
    Chroma subsampling : 4:2:2
    Bit depth : 8 bits
    Scan type : Progressive
    Compression mode : Lossy
    Bits/(Pixel*Frame) : 1.350
    Stream size : 128 MiB (97%)

    Audio
    ID : 1
    Format : PCM
    Format settings, Endianness : Little
    Format settings, Sign : Signed
    Codec ID : 1
    Codec ID/Hint : Microsoft
    Duration : 1mn 26s
    Bit rate mode : Constant
    Bit rate : 352.8 Kbps
    Channel(s) : 1 channel
    Sampling rate : 22.05 KHz
    Bit depth : 16 bits
    Stream size : 3.64 MiB (3%)
    Interleave, duration : 33 ms (1.00 video frame)


    Habe es grade mal mit dem Rock Player probiert, da funktioniert es wenn ich "software" auswähle, bei Hardware decoding kommt aber dass das Format nicht unterstützt wird.
     
  4. belphegore, 09.08.2011 #4
    belphegore

    belphegore Fortgeschrittenes Mitglied

    Ist wie erwartet einfach nur ein Codec-Problem. Motion-JPEG ist nicht das beste Format für Videos, da bleibt dir nur konvertieren oder einen anderen Player zu nutzen.
     

Diese Seite empfehlen

Besucher kamen mit folgenden Begriffen auf unsere Seite:

  1. Gerät unterstützt nicht die wiedergabe speziell kopiergeschützter videos

    ,
  2. gerät spielt kopiergeschützte

    ,
  3. gerät unterstützt nicht die wiedergabe von kopiergeschützten videos

    ,
  4. gerät unterstützt kopiergeschützte videos nicht,
  5. gerät autorisieren um video abzuspielen,
  6. lg g3 autorisieren kopiergeschützte Videos abspielen,
  7. gerät unterstützt nicht speziell kopiergeschützte videos,
  8. was heist gerät unterstützt Wiedergabe geschützter Videos nicht?,
  9. gerät unterstützt nichts die wiedergabe von kopiergeschützten videos,
  10. ger�t unterst�tzt nicht die wiedergabe speziell kopiergesch�tzter videos,
  11. sixx app gerät unterstützt kopiergeschützte videos nicht,
  12. dieses gerät unterstützt nicht die Wiedergabe speziell kopiergeschützter videos,
  13. sixx gerät unterstützt nicht die Wiedergabe speziell kopiergeschützter Videos,
  14. geraet unterstuetzt kopiergeschützte,
  15. android gerät unterstützt nicht die wiedergabe speziell kopiergeschützter videos